<?xml version="1.0" standalone="no"?>
<!DOCTYPE svg PUBLIC "-//W3C//DTD SVG 1.1//EN" "http://www.w3.org/Graphics/SVG/1.1/DTD/svg11.dtd" >
<svg xmlns="http://www.w3.org/2000/svg">
<metadata>Generated by IcoMoon</metadata>
<defs>
<font id="cmsmasters-demo-icons" horiz-adv-x="1024">
<font-face units-per-em="1024" ascent="960" descent="-64" />
<missing-glyph horiz-adv-x="1024" />
<glyph unicode="&#x20;" horiz-adv-x="512" d="" />
<glyph unicode="&#xe900;" glyph-name="menu" d="M0 807h1024v-102.4h-1024v102.4zM0 499.8h1024v-102.4h-1024v102.4zM0 192.6h1024v-102.4h-1024v102.4z" />
<glyph unicode="&#xe904;" glyph-name="first-aid-kit" d="M691.305 478.404c-0.071 0-0.14 0-0.211 0h-85.755v85.965c0.116 17.338-13.846 31.489-31.184 31.605-0.071 0-0.142 0-0.211 0h-123.891c-17.338 0-31.394-14.056-31.394-31.394v-85.965h-85.755c-17.338 0.116-31.489-13.843-31.605-31.181 0-0.142 0-0.282 0-0.424v-123.681c0-17.338 14.056-31.394 31.394-31.394h85.965v-85.755c-0.116-17.338 13.846-31.489 31.184-31.605 0.071 0 0.142 0 0.211 0h123.681c17.338 0 31.394 14.056 31.394 31.394v0 85.965h85.965c17.338-0.116 31.489 13.846 31.605 31.184 0 0.071 0 0.142 0 0.211v123.681c0 17.338-14.054 31.394-31.394 31.394zM680.56 334.075h-96.29c-11.636 0-21.070-9.434-21.070-21.070v-96.29h-102.4v96.29c0 11.636-9.434 21.070-21.070 21.070h-96.29v102.189h96.29c11.636 0 21.070 9.434 21.070 21.070v96.5h102.189v-96.29c0-11.636 9.434-21.070 21.070-21.070h96.5v-102.4zM878.617 753.578v0h-173.616v74.166c1.093 33.844-25.458 62.167-59.301 63.26-1.725 0.055-3.45 0.040-5.173-0.050h-257.053c-33.817 1.762-62.659-24.223-64.424-58.037-0.090-1.722-0.108-3.448-0.050-5.173v-73.745h-173.616c-67.002 0-145.383-38.137-145.383-145.383v-458.272c0-107.246 78.38-145.383 145.383-145.383h733.235c67.002 0 145.383 38.137 145.383 145.383v457.85c0 107.246-78.17 145.383-145.383 145.383zM361.139 827.744c0 6.11 0 22.545 22.545 22.545h256.843c22.545 0 22.545-16.224 22.545-22.545v-73.745h-301.933v73.745zM981.86 150.345c0-93.129-72.059-103.243-103.243-103.243h-733.235c-30.973 0-103.243 10.114-103.243 103.243v457.85c0 93.129 72.059 103.243 103.243 103.243h733.235c30.973 0 103.243-10.114 103.243-103.243v-457.85z" />
<glyph unicode="&#xe906;" glyph-name="calendar" d="M637.999 540.001c0-22.091-17.909-40-40-40s-40 17.909-40 40c0 22.091 17.909 40 40 40s40-17.909 40-40zM637.999 366.001c0-22.091-17.909-40-40-40s-40 17.909-40 40c0 22.091 17.909 40 40 40s40-17.909 40-40zM811.998 540.001c0-22.091-17.909-40-40-40s-40 17.909-40 40c0 22.091 17.909 40 40 40s40-17.909 40-40zM983.998 460.001c22.092 0 40 17.908 40 40v220c0 88.224-71.776 160-160 160h-52v40c0 22.092-17.908 40-40 40s-40-17.908-40-40v-40h-182v40c0 22.092-17.908 40-40 40s-40-17.908-40-40v-40h-180v40c0 22.092-17.908 40-40 40s-40-17.908-40-40v-40h-50c-88.224 0-160-71.776-160-160v-623.999c0-88.224 71.776-160 160-160h503.999c1.362 0 2.708 0.070 4.034 0.204 1.318-0.13 2.638-0.204 3.956-0.204 10.666 0 21.132 4.268 28.822 12.254l311.999 323.999c11.128 11.556 14.276 28.642 7.998 43.402s-20.768 24.344-36.81 24.344h-192c-88.224 0-160-71.776-160-160v-164h-471.999c-44.112 0-80 35.888-80 80v623.999c0 44.112 35.888 80 80 80h50v-40c0-22.092 17.908-40 40-40s40 17.908 40 40v40h180v-40c0-22.092 17.908-40 40-40s40 17.908 40 40v40h182v-40c0-22.092 17.908-40 40-40s40 17.908 40 40v40h52c44.112 0 80-35.888 80-80v-220c0-22.092 17.908-40 40-40zM711.999 180.002c0 44.112 35.888 80 80 80h97.95l-177.95-184.796v104.796zM289.999 540.001c0-22.091-17.909-40-40-40s-40 17.909-40 40c0 22.091 17.909 40 40 40s40-17.909 40-40zM463.999 366.001c0-22.091-17.909-40-40-40s-40 17.909-40 40c0 22.091 17.909 40 40 40s40-17.909 40-40zM289.999 192.001c0-22.091-17.909-40-40-40s-40 17.909-40 40c0 22.091 17.909 40 40 40s40-17.909 40-40zM289.999 366.001c0-22.091-17.909-40-40-40s-40 17.909-40 40c0 22.091 17.909 40 40 40s40-17.909 40-40zM463.999 192.001c0-22.091-17.909-40-40-40s-40 17.909-40 40c0 22.091 17.909 40 40 40s40-17.909 40-40zM463.999 540.001c0-22.091-17.909-40-40-40s-40 17.909-40 40c0 22.091 17.909 40 40 40s40-17.909 40-40z" />
<glyph unicode="&#xe907;" glyph-name="search2" d="M1011.4 8.8l-246.2 246.2c61 74.4 97.8 169.6 97.8 273.6 0 238-193.2 431.4-431.4 431.4-238.6 0-431.6-193.4-431.6-431.6s193-431.6 431.6-431.6c103.8 0 199 36.6 273.4 97.6l246.2-246c16.8-16.8 43.6-16.8 60.4 0 16.6 16.6 16.6 43.8-0.2 60.4zM431.6 182.8c-190.8 0-345.8 155-345.8 345.6s155 345.8 345.8 345.8c190.6 0 345.8-155.2 345.8-345.8s-155.2-345.6-345.8-345.6z" />
<glyph unicode="&#xe908;" glyph-name="healthcare" d="M994 418h-28.85c37.934 58.532 58.85 118.664 58.85 186.97 0 77.704-26.752 150.496-75.33 204.97-50.638 56.786-120.484 88.060-196.67 88.060-78.482 0-149.77-32.398-206.158-93.688-13.662-14.852-24.89-29.716-33.842-43.066-8.952 13.35-20.18 28.214-33.842 43.066-56.388 61.29-127.676 93.688-206.158 93.688-76.186 0-146.032-31.274-196.67-88.060-48.578-54.474-75.33-127.268-75.33-204.97 0-68.306 20.916-128.438 58.85-186.97h-28.85c-16.568 0-30-13.432-30-30s13.432-30 30-30h73.8c63.42-75.060 152.952-151.21 260.352-242.542 40.858-34.744 83.106-70.67 128.094-110.036 5.654-4.948 12.704-7.422 19.754-7.422s14.1 2.474 19.756 7.422c44.988 39.366 87.236 75.292 128.094 110.036 107.4 91.332 196.93 167.482 260.35 242.542h73.8c16.568 0 30 13.432 30 30s-13.432 30-30 30zM60 604.97c0 132.848 91.14 233.030 212 233.030 61.512 0 115.58-24.53 160.702-72.908 35.082-37.612 51.426-76.196 51.586-76.582 4.632-11.176 15.542-18.44 27.646-18.474h0.082c12.098 0 23.032 7.306 27.698 18.474 0.16 0.384 16.504 38.968 51.586 76.582 45.12 48.378 99.188 72.908 160.7 72.908 120.86 0 212-100.182 212-233.030 0-66.556-26.126-126.208-72.822-186.97h-120.638l-81.708 163.416c-5.080 10.164-15.468 16.584-26.832 16.584s-21.752-6.42-26.832-16.584l-63.168-126.334-33.168 66.334c-5.426 10.852-16.814 17.364-28.958 16.508-12.104-0.86-22.496-8.926-26.334-20.438l-30.034-90.102-62.772 209.236c-3.7 12.334-14.856 20.93-27.724 21.364-12.854 0.404-24.576-7.394-29.1-19.45l-82.7-220.534h-118.388c-46.696 60.762-72.822 120.414-72.822 186.97zM620.98 161.166c-35-29.764-71.016-60.39-108.98-93.368-37.964 32.978-73.98 63.604-108.98 93.368-86.74 73.762-161.112 137.010-218.216 196.834h87.196c12.506 0 23.7 7.756 28.090 19.466l58.75 156.666 64.426-214.752c3.758-12.53 15.202-21.178 28.28-21.376 0.154-0.004 0.306-0.004 0.458-0.004 12.892 0 24.37 8.25 28.458 20.514l37.096 111.29 27.612-55.22c5.078-10.164 15.466-16.584 26.83-16.584s21.752 6.42 26.832 16.584l63.168 126.334 63.168-126.334c5.080-10.164 15.468-16.584 26.832-16.584h87.196c-57.104-59.824-131.476-123.072-218.216-196.834z" />
<glyph unicode="&#xe909;" glyph-name="clock" d="M694.432 357.578l-142.774 107.080v218.124c0 21.932-17.728 39.66-39.66 39.66s-39.66-17.728-39.66-39.66v-237.956c0-12.492 5.87-24.272 15.864-31.728l158.636-118.978c7.138-5.354 15.468-7.932 23.756-7.932 12.096 0 23.994 5.434 31.768 15.904 13.17 17.492 9.6 42.358-7.93 55.486zM512 960c-282.334 0-512-229.666-512-512s229.666-512 512-512 512 229.666 512 512-229.666 512-512 512zM512 15.318c-238.55 0-432.682 194.132-432.682 432.682s194.132 432.682 432.682 432.682c238.59 0 432.682-194.132 432.682-432.682s-194.132-432.682-432.682-432.682z" />
<glyph unicode="&#xe90a;" glyph-name="close" d="M888.471 943.412l89.955-85.347-393.926-396.973 394.323-395.94-89.793-85.504-391.847 393.45-388.302-391.305-89.953 85.347 390.775 393.798-394.645 396.26 89.795 85.506 392.167-393.774 391.451 394.483z" />
<glyph unicode="&#xe90b;" glyph-name="health-insurance" d="M945.9 682.269l-0.018 0.976c-0.484 25.529-0.942 49.642-0.942 72.841 0 35.144-28.59 63.734-63.734 63.734-135.979 0-239.182 38.769-324.789 122.007-24.915 24.231-63.952 24.233-88.865 0.002-85.603-83.24-188.796-122.009-324.755-122.009-35.144 0-63.734-28.59-63.734-63.734 0-23.695-0.466-48.048-0.96-73.837-2.3-120.387-5.161-270.212 45.118-406.211 27.647-74.783 69.507-139.771 124.42-193.16 62.542-60.806 144.458-109.040 243.464-143.358 6.733-2.336 13.756-3.52 20.877-3.52 7.129 0 14.156 1.186 20.873 3.518 99.020 34.322 180.941 82.556 243.49 143.364 54.917 53.391 96.784 118.381 124.432 193.166 50.284 136.007 47.422 285.834 45.122 406.221zM844.504 296.851c-53.025-143.416-161.394-241.76-331.317-300.656-0.776-0.268-1.628-0.274-2.432 0.006-169.893 58.889-278.251 157.228-331.269 300.638-46.35 125.376-43.725 262.915-41.407 384.264 0.5 26.079 0.972 50.712 0.972 74.983 0 2.062 1.678 3.742 3.742 3.742 152.579 0 269.062 44.164 366.58 138.993 0.73 0.71 1.668 1.066 2.606 1.066s1.878-0.358 2.61-1.068c97.524-94.826 214.017-138.991 366.614-138.991 2.062 0 3.742-1.68 3.742-3.742 0-23.769 0.462-48.158 0.954-73.979l0.018-0.98v-0.002c2.32-121.351 4.945-258.892-41.413-384.274zM698.383 547.816h-96.518v96.53c0 16.566-13.43 29.996-29.996 29.996h-119.717c-16.566 0-29.996-13.43-29.996-29.996v-96.53h-96.536c-16.566 0-29.996-13.43-29.996-29.996v-119.717c0-16.566 13.43-29.996 29.996-29.996h96.536v-96.528c0-16.566 13.43-29.996 29.996-29.996h119.717c16.566 0 29.996 13.43 29.996 29.996v96.528h96.52c16.566 0 29.996 13.43 29.996 29.996v119.717c-0.002 16.568-13.432 29.996-29.998 29.996zM668.386 428.098h-96.518c-16.566 0-29.996-13.43-29.996-29.996v-96.528h-59.725v96.528c0 16.566-13.43 29.996-29.996 29.996h-96.536v59.725h96.536c16.566 0 29.996 13.43 29.996 29.996v96.53h59.725v-96.53c0-16.566 13.43-29.996 29.996-29.996h96.52v-59.725z" />
<glyph unicode="&#xe90c;" glyph-name="maps-and-flags" d="M512 960c-204.49 0-370.854-166.364-370.854-370.852 0-253.776 331.878-626.334 346.008-642.070 13.272-14.782 36.444-14.756 49.692 0 14.13 15.736 346.008 388.294 346.008 642.070-0.004 204.488-166.366 370.852-370.854 370.852zM512 20.542c-111.694 132.676-304.070 394.434-304.070 568.602 0 167.668 136.404 304.072 304.070 304.072s304.070-136.404 304.070-304.070c-0.002-174.176-192.348-435.886-304.070-568.604zM512 775.732c-102.884 0-186.584-83.702-186.584-186.586s83.702-186.586 186.584-186.586 186.582 83.702 186.582 186.586-83.7 186.586-186.582 186.586zM512 469.344c-66.060 0-119.8 53.742-119.8 119.802s53.742 119.802 119.8 119.802 119.8-53.742 119.8-119.802-53.742-119.802-119.8-119.802z" />
<glyph unicode="&#xe90d;" glyph-name="medal" d="M512 960c-215.046 0-390-174.954-390-390 0-137.786 71.824-259.114 180-328.508v-275.492c0-11.064 6.090-21.23 15.844-26.45 9.756-5.222 21.592-4.648 30.796 1.488l163.36 108.906 163.36-108.906c9.2-6.134 21.036-6.712 30.796-1.488 9.754 5.22 15.844 15.386 15.844 26.45v275.492c108.176 69.394 180 190.722 180 328.508 0 215.046-174.954 390-390 390zM662 22.056l-133.36 88.906c-10.076 6.718-23.206 6.718-33.282 0l-133.358-88.906v187.962c46.2-19.324 96.872-30.018 150-30.018s103.8 10.694 150 30.018v-187.962zM512 240c-181.962 0-330 148.038-330 330s148.038 330 330 330 330-148.038 330-330-148.036-330-330-330zM750.572 640.182c-3.508 10.954-12.968 18.938-24.358 20.554l-129.608 18.388-57.832 114.41c-5.104 10.098-15.458 16.466-26.774 16.466s-21.668-6.368-26.774-16.466l-57.832-114.41-129.608-18.388c-11.388-1.616-20.85-9.6-24.358-20.554s-0.442-22.95 7.89-30.88l93.352-88.844-22.004-125.266c-1.97-11.216 2.58-22.582 11.748-29.338 9.166-6.758 21.368-7.742 31.5-2.542l116.086 59.586 116.086-59.588c10.152-5.21 22.352-4.204 31.5 2.542 9.166 6.756 13.716 18.122 11.748 29.338l-22.004 125.266 93.352 88.844c8.332 7.932 11.398 19.926 7.89 30.882zM596.318 552.834c-7.276-6.924-10.604-17.030-8.866-26.922l14.346-81.666-76.098 39.062c-8.602 4.414-18.8 4.414-27.4 0l-76.098-39.062 14.346 81.666c1.738 9.892-1.59 19.998-8.866 26.922l-60.104 57.202 83.742 11.88c9.71 1.378 18.136 7.416 22.56 16.168l38.12 75.416 38.12-75.414c4.424-8.754 12.848-14.792 22.56-16.168l83.742-11.88-60.104-57.204z" />
<glyph unicode="&#xe90e;" glyph-name="medical-history" d="M653.027 523.516h-65.51v65.51c0 14.91-12.087 26.997-26.997 26.997h-97.227c-14.837-0.104-26.808-12.16-26.808-26.997v-65.51h-65.51c-14.91 0-26.997-12.087-26.997-26.997v-97.416c0.208-14.763 12.234-26.622 26.997-26.619h65.51v-65.51c0-14.91 12.087-26.997 26.997-26.997h97.416c14.763 0.208 26.622 12.234 26.619 26.997v65.51h65.322c14.91 0 26.997 12.087 26.997 26.997v97.227c-0.104 14.763-12.045 26.704-26.808 26.808zM642.265 410.242h-73.628c-10.426 0-18.879-8.453-18.879-18.879v-73.628h-75.516v73.628c0 10.426-8.453 18.879-18.879 18.879h-73.628v75.516h73.628c10.426 0 18.879 8.453 18.879 18.879v73.628h75.516v-73.628c0-10.426 8.453-18.879 18.879-18.879h73.628v-75.516zM867.115 904.684h-156.885v15.292c0 22.105-17.919 40.024-40.024 40.024h-295.268c-22.105 0-40.024-17.919-40.024-40.024v-16.236h-178.029c-22.105 0-40.024-17.919-40.024-40.024v-887.693c0-22.105 17.919-40.024 40.024-40.024h710.23c22.105 0 40.024 17.919 40.024 40.024v888.637c0 22.105-17.919 40.024-40.024 40.024zM372.673 794.242v125.735c0 1.251 1.015 2.265 2.265 2.265h295.268c1.251 0 2.265-1.015 2.265-2.265v-160.661c0-1.251-1.015-2.265-2.265-2.265h-295.268c-1.251 0-2.265 1.015-2.265 2.265v34.926zM374.749 718.537h295.457c22.105 0 40.024 17.919 40.024 40.024v16.236h67.776v-710.419h-371.917v162.926c0 10.426-8.453 18.879-18.879 18.879h-141.215v528.614h88.732v-16.236c0-22.105 17.919-40.024 40.024-40.024zM368.33 208.425v-113.274l-99.304 113.274h99.304zM869.381-23.976c0-1.251-1.015-2.265-2.265-2.265h-710.23c-1.251 0-2.265 1.015-2.265 2.265v888.637c0 1.251 1.015 2.265 2.265 2.265h178.029v-53.617h-107.611c-10.426 0-18.879-8.453-18.879-18.879v-566.372c0.498-2.204 1.003-4.406 1.51-6.608 0.559-1.267 1.255-2.471 2.077-3.587 0.387-0.786 0.828-1.541 1.322-2.265l159.717-182.938c1.432-1.454 3.089-2.664 4.909-3.587h1.322c2.386-1.017 4.958-1.532 7.552-1.51h409.676c10.426 0 18.879 8.453 18.879 18.879v747.799c0 10.426-8.453 18.879-18.879 18.879h-86.277v53.805h156.885c1.251 0 2.265-1.015 2.265-2.265v-888.637z" />
<glyph unicode="&#xe90f;" glyph-name="pills" d="M482.278 325h-100.246v100.246c0 16.568-13.432 30-30 30s-30-13.432-30-30v-100.246h-100.246c-16.568 0-30-13.432-30-30s13.432-30 30-30h100.246v-100.246c0-16.568 13.432-30 30-30s30 13.432 30 30v100.246h100.246c16.568 0 30 13.432 30 30s-13.432 30-30 30zM985.252 356.616l-10.344 10.344c-49.982 49.984-131.198 51.998-183.508 3.544-3.576-3.312 5.614 5.8-89.368-89.184v288.14c0 45.036-42.41 84.54-90.76 84.54h-37.24v68h19.778c32.082 0 60.222 27.584 60.222 59.030v116.124c0 29.666-25.754 62.846-60.222 62.846h-483.556c-34.468 0-60.222-33.18-60.222-62.846v-116.124c0-31.446 28.14-59.030 60.222-59.030h15.778v-68h-31.24c-46.8 0-94.76-38.568-94.76-84.54v-545.42c0-44.432 46.938-88.040 94.76-88.040h516.48c12.882 0 25.956 3.108 38.090 8.924 48.292-18.564 103.776-7.66 141.292 29.854l194.6 194.6c51.62 51.622 51.62 135.616-0.002 187.238zM830.098 324.532c27.93 28.076 74.008 28.364 102.38-0.008l10.338-10.338c27.152-27.152 28.308-70.894 2.804-99.416-2.212-2.456 5.636 5.466-76.668-76.838l-112.728 112.728zM382.032 782v118h73.698v-118zM243.51 782v118h78.522v-118zM594.032 896.536v-113.952c-0.926-0.908 4.896-0.584-78.302-0.584v118h75.91c0.96-0.88 2.046-2.42 2.392-3.464zM110.032 782.584v113.952c0.346 1.042 1.432 2.584 2.392 3.464h71.086v-118c-77.668 0-72.554-0.322-73.478 0.584zM186.032 722h328v-68h-328zM60.032 24.040v545.42c0 8.796 17.52 24.54 34.76 24.54h516.48c15.552 0 30.76-14.052 30.76-24.54v-348.142l-48.958-48.96c-48.14-48.14-51.366-124.422-9.72-176.358h-488.562c-16.346 0-34.76 18.292-34.76 28.040zM748.228 17.204c-28.32-28.32-74.13-28.256-102.384 0l-10.344 10.344c-28.29 28.29-28.296 74.088 0 102.384 67.678 67.678 7.804 7.804 78.3 78.302l112.73-112.728z" />
<glyph unicode="&#xe910;" glyph-name="prescription" d="M825.406 288.086c-13.227 13.227-29.273 22.578-46.773 27.563v447.375c0 7.523-2.867 14.766-8.031 20.25l-157.578 167.43c-5.586 5.93-13.375 9.297-21.516 9.297h-393.961c-16.32 0-29.547-13.227-29.547-29.547v-758.367c0-16.32 13.227-29.547 29.547-29.547h329.094l-21.594-21.594c-42.242-42.242-42.242-110.969 0-153.211 20.461-20.469 47.672-31.734 76.609-31.734s56.141 11.266 76.609 31.734l167.141 167.141c42.242 42.242 42.242 110.969 0 153.211zM717.781 753.172h-136.125v144.633zM585.734 201.633h-358.641v699.273h295.469v-177.281c0-16.32 13.227-29.547 29.547-29.547h167.43v-378.266c-17.727-4.945-33.977-14.359-47.344-27.727zM616.477 9.516c-18.984-18.984-50.664-18.977-69.641 0-19.203 19.203-19.203 50.445 0 69.648l62.68 62.672 69.641-69.641zM783.617 176.656l-62.68-62.68-69.641 69.648 62.68 62.672c18.984 18.992 50.68 18.969 69.641 0 19.203-19.195 19.203-50.438 0-69.641zM414.227 556.195h29.547v-29.547c0-16.32 13.227-29.547 29.547-29.547 16.313 0 29.547 13.227 29.547 29.547v29.547h29.547c16.313 0 29.547 13.227 29.547 29.547 0 16.313-13.234 29.547-29.547 29.547h-29.547v29.547c0 16.313-13.234 29.547-29.547 29.547-16.32 0-29.547-13.234-29.547-29.547v-29.547h-29.547c-16.32 0-29.547-13.234-29.547-29.547 0-16.32 13.227-29.547 29.547-29.547zM630.898 438.008h-315.164c-16.32 0-29.547-13.234-29.547-29.547 0-16.32 13.227-29.547 29.547-29.547h315.164c16.32 0 29.547 13.227 29.547 29.547 0 16.313-13.227 29.547-29.547 29.547zM512.711 319.82h-196.977c-16.32 0-29.547-13.227-29.547-29.547s13.227-29.547 29.547-29.547h196.977c16.32 0 29.547 13.227 29.547 29.547s-13.227 29.547-29.547 29.547z" />
<glyph unicode="&#xe911;" glyph-name="quote" d="M55.652 76.387c-4.947 0-9.894 2.502-14.841 7.508-2.473 5.004-3.71 10.009-3.71 15.013 0 7.508 2.473 13.765 7.42 18.769 91.517 82.581 137.275 158.905 137.275 228.973 0 40.040-17.313 67.566-51.941 82.581-39.575 20.021-71.73 43.794-96.464 71.32-22.261 27.527-33.391 65.064-33.391 112.61 0 57.556 18.551 106.354 55.652 146.393 39.575 40.039 87.807 60.059 144.695 60.059 56.89 0 105.122-21.271 144.696-63.812 42.048-40.039 63.072-91.339 63.072-153.9 0-117.615-34.628-222.718-103.883-315.308-66.783-90.089-144.696-158.905-233.739-206.452l-14.841-3.754zM671.536 76.387c-4.947 0-9.893 2.502-14.84 7.508-2.474 5.004-3.711 10.009-3.711 15.013 0 7.508 2.474 13.765 7.421 18.769 91.518 82.581 137.275 158.905 137.275 228.973 0 40.040-17.314 67.566-51.942 82.581-39.576 20.021-71.73 43.794-96.464 71.32-22.26 27.527-33.391 65.064-33.391 112.61 0 57.556 18.549 106.354 55.651 146.393 39.576 40.039 87.806 60.059 144.696 60.059 56.888 0 105.12-21.271 144.696-63.812 42.048-40.039 63.072-91.339 63.072-153.9 0-117.615-34.628-222.718-103.883-315.308-66.783-90.089-144.696-158.905-233.74-206.452l-14.841-3.754z" />
<glyph unicode="&#xe912;" glyph-name="search" d="M1024 36.435l-266.874 264.749c50.195 68.48 79.872 152.704 79.872 243.669 0 228.907-187.738 415.147-418.522 415.147-230.743 0-418.477-186.24-418.477-415.147 0-228.949 187.734-415.144 418.477-415.144 87.48 0 168.724 26.752 235.987 72.448l268.294-266.157 101.242 100.435zM122.748 544.853c0 161.792 132.683 293.419 295.773 293.419s295.771-131.627 295.771-293.419c0-161.792-132.681-293.416-295.771-293.416-163.133 0-295.773 131.624-295.773 293.416z" />
<glyph unicode="&#xe913;" glyph-name="security" d="M941.113 696.337c-0.526 27.647-1.027 53.764-1.027 79.031 0 19.795-16.043 35.843-35.843 35.843-153.287 0-269.995 44.053-367.277 138.639-13.916 13.534-36.062 13.529-49.974 0-97.272-94.586-213.961-138.639-367.239-138.639-19.795 0-35.843-16.048-35.843-35.843 0-25.271-0.497-51.398-1.027-79.050-4.913-257.283-11.642-609.645 417.356-758.344 3.804-1.319 7.771-1.979 11.737-1.979s7.938 0.66 11.737 1.979c429.031 148.704 422.312 501.075 417.399 758.363zM511.981 9.874c-367.922 133.655-362.359 426.441-357.423 685.077 0.296 15.522 0.583 30.567 0.784 45.315 143.562 6.060 258.363 49.563 356.639 135.174 98.285-85.611 213.106-129.119 356.677-135.174 0.201-14.743 0.487-29.778 0.784-45.291 4.932-258.645 10.49-551.441-357.461-685.101zM635.409 572.508l-172.996-172.986-73.821 73.821c-13.998 13.993-36.693 13.993-50.686 0-13.998-14.003-13.998-36.693 0-50.691l99.165-99.165c6.996-6.996 16.172-10.495 25.343-10.495s18.347 3.498 25.343 10.495l198.334 198.329c14.003 13.998 14.003 36.693 0.005 50.686-13.993 13.998-36.689 14.003-50.686 0.005z" />
<glyph unicode="&#xe914;" glyph-name="shield" d="M946.975 682.165l-0.031 0.797c-0.445 9.836-0.742 20.242-0.922 31.82-0.836 56.461-45.719 103.164-102.187 106.32-117.734 6.57-208.812 44.961-286.632 120.812l-0.664 0.633c-25.383 23.273-63.672 23.273-89.062 0l-0.664-0.633c-77.82-75.851-168.898-114.242-286.632-120.82-56.461-3.148-101.351-49.851-102.187-106.32-0.172-11.5-0.477-21.906-0.922-31.812l-0.047-1.852c-2.289-120.054-5.133-269.468 44.851-405.085 27.484-74.578 69.109-139.406 123.711-192.695 62.187-60.687 143.64-108.867 242.093-143.195 3.203-1.117 6.531-2.023 9.922-2.703 4.781-0.953 9.594-1.43 14.406-1.43s9.633 0.477 14.406 1.43c3.391 0.68 6.742 1.594 9.961 2.719 98.336 34.391 179.703 82.594 241.835 143.273 54.578 53.305 96.203 118.148 123.711 192.742 50.172 136.023 47.336 285.718 45.055 405.999zM845.546 296.955c-52.719-142.937-160.335-241.101-328.999-300.085-0.602-0.203-1.242-0.383-1.906-0.516-1.742-0.344-3.516-0.344-5.281 0.008-0.656 0.133-1.297 0.305-1.891 0.508-168.843 58.875-276.53 156.984-329.21 299.929-46.070 125.007-43.461 262.163-41.156 383.163l0.016 0.672c0.469 10.398 0.781 21.289 0.953 33.258 0.375 25.070 20.344 45.812 45.461 47.211 66.625 3.719 125.156 16.594 178.937 39.359 53.711 22.734 101.414 54.781 145.82 97.968 2.258 1.906 5.187 1.914 7.437 0 44.414-43.187 92.117-75.234 145.82-97.968 53.781-22.766 112.312-35.641 178.945-39.359 25.117-1.398 45.086-22.141 45.453-47.219 0.18-12.031 0.492-22.922 0.961-33.25 2.297-121.14 4.844-258.406-41.359-383.679zM511.992 703.18c-140.718 0-255.195-114.484-255.195-255.195 0-140.718 114.476-255.202 255.195-255.202 140.711 0 255.195 114.484 255.195 255.202 0 140.711-114.484 255.195-255.195 255.195zM511.992 252.877c-107.586 0-195.109 87.523-195.109 195.109s87.523 195.109 195.109 195.109c107.578 0 195.101-87.523 195.101-195.109s-87.523-195.109-195.101-195.109zM585.336 527.212l-118.531-118.531-32.172 32.172c-11.734 11.734-30.758 11.734-42.492 0-11.727-11.734-11.727-30.758 0-42.484l53.422-53.422c5.867-5.867 13.555-8.797 21.242-8.797s15.375 2.93 21.242 8.797l139.781 139.781c11.727 11.734 11.727 30.758 0 42.484-11.734 11.742-30.758 11.742-42.492 0z" />
<glyph unicode="&#xe915;" glyph-name="telephone" d="M831.946 164.845l-21.356 35.659c-38.407 63.324-91.413 136.004-160.939 136.004-12.881 0-25.637-2.591-38.264-7.838l-37.317-16.003c-3.408-1.413-6.72-3.020-10.225-4.725-9.551-4.646-20.381-9.907-31.521-9.907-27.48 0-59.319 35.761-89.64 100.692-29.757 63.73-27.859 97.14-21.028 113.951 7.537 18.548 25.064 26.478 43.894 33.604 2.619 0.993 4.983 1.894 7.283 2.84l37.788 15.911c98.447 41.169 61.823 185.039 49.815 232.207l-10.184 40.555c-8.706 33.424-31.789 122.204-108.354 122.204-14.174 0-29.295-3.302-44.928-9.819-10.258-4.073-151.416-61.693-202.556-162.921-61.121-120.491-49.819-282.068 33.558-480.14 82.754-198.321 190.063-319.625 318.951-360.535 22.109-7.025 47.094-10.581 74.269-10.581 0 0 0.009 0 0.014 0 88.947 0 176.748 37.844 183.875 40.984 30.667 12.992 50.489 32.736 58.913 58.687 14.28 44.009-9.676 92.226-32.047 129.169zM798.093 57.059c-1.958-6.032-8.766-11.537-20.22-16.359-0.189-0.083-0.42-0.18-0.614-0.268-0.794-0.351-80.269-35.16-156.072-35.156-20.053 0-37.987 2.466-53.302 7.334-108.585 34.468-201.434 142.526-276.027 321.283-75.147 178.536-87.155 320.526-35.641 422.076 40 79.174 165.23 129.4 166.458 129.88 0.249 0.102 0.494 0.199 0.739 0.3 7.131 2.993 13.523 4.572 18.483 4.572 15.264 0 29.156-23.674 41.229-70.076l10.138-40.384c21.873-85.903 18.543-139.634-9.459-151.347l-37.608-15.841c-1.496-0.619-3.247-1.27-5.177-2.004-20.774-7.865-64.003-24.224-83.553-72.311-17.739-43.635-10.396-99.029 22.427-169.35 44.208-94.646 94.064-140.655 152.418-140.655 27.083 0 48.822 10.567 61.809 16.876 2.392 1.164 4.531 2.231 6.831 3.182l37.373 16.026c3.856 1.607 7.56 2.388 11.32 2.388 17.989 0 50.244-17.813 101.611-102.488l21.342-35.636c26.302-43.427 28.38-63.148 25.494-72.043z" />
<glyph unicode="&#xe916;" glyph-name="time-left" d="M615.437 27.319c-8.444-2.104-17.053-3.973-25.598-5.547-22.338-4.154-37.106-25.637-32.974-47.995 2.041-10.999 8.288-20.161 16.769-26.141 8.741-6.152 19.866-8.93 31.202-6.822 10.176 1.889 20.432 4.11 30.495 6.621 22.058 5.49 35.497 27.836 29.994 49.884-5.49 22.067-27.817 35.494-49.888 30zM919.854 579.088c2.884-8.69 8.389-15.785 15.342-20.687 10.31-7.262 23.802-9.705 36.676-5.448 21.585 7.167 33.28 30.443 26.139 52.017-3.253 9.835-6.863 19.701-10.709 29.307-8.444 21.11-32.389 31.387-53.509 22.943-21.099-8.439-31.38-32.391-22.93-53.507 3.231-8.074 6.258-16.362 8.99-24.625zM749.202 86.093c-7.262-4.794-14.757-9.434-22.307-13.782-19.699-11.363-26.445-36.542-15.087-56.232 3.084-5.356 7.191-9.734 11.922-13.080 12.699-8.935 29.945-10.273 44.304-2.001 8.977 5.177 17.902 10.685 26.551 16.403 18.961 12.527 24.18 38.068 11.647 57.038-12.531 18.977-38.061 24.189-57.029 11.653zM1023.608 464.115c-0.896 22.721-20.033 40.405-42.761 39.518-22.699-0.896-40.396-20.040-39.505-42.752 0.341-8.684 0.429-17.497 0.229-26.172-0.319-14.248 6.65-26.949 17.48-34.583 6.452-4.543 14.281-7.293 22.771-7.486 22.721-0.504 41.55 17.517 42.054 40.249 0.227 10.365 0.141 20.867-0.269 31.226zM913.136 194.386c-18.219 13.669-43.995 9.958-57.641-8.228-5.226-6.965-10.729-13.843-16.364-20.467-14.726-17.301-12.646-43.289 4.656-58.026 0.986-0.836 1.983-1.605 3.018-2.327 17.2-12.126 41.105-9.34 55.012 6.98 6.729 7.902 13.289 16.119 19.533 24.438 13.647 18.186 9.954 43.98-8.215 57.63zM973.647 343.194c-21.693 6.802-44.794-5.274-51.592-26.967-2.602-8.288-5.485-16.615-8.598-24.77-6.835-17.953-0.286-37.707 14.726-48.292 2.754-1.935 5.787-3.575 9.082-4.821 21.239-8.105 45.023 2.551 53.119 23.799 3.696 9.696 7.125 19.604 10.227 29.457 6.791 21.697-5.276 44.792-26.965 51.594zM435.836 21.402c-36.804 6.608-72.109 17.861-105.587 33.555-0.396 0.207-0.751 0.442-1.167 0.632-7.889 3.713-15.765 7.691-23.399 11.847-0.026 0.031-0.075 0.051-0.117 0.068-14.006 7.713-27.676 16.247-40.956 25.596-193.644 136.409-240.204 404.929-103.787 598.571 29.663 42.091 65.561 77.207 105.581 105.039 0.493 0.343 0.986 0.685 1.475 1.030 141.025 97.17 332.514 103.719 482.26 3.868l-32.162-46.47c-8.941-12.934-3.44-22.36 12.212-20.951l139.704 12.507c15.673 1.409 25.045 14.966 20.83 30.101l-37.515 135.167c-4.2 15.153-14.953 16.967-23.903 4.035l-32.237-46.58c-109.893 73.769-241.699 101.898-372.523 79.213-13.176-2.28-26.168-5.072-38.981-8.321-0.099-0.018-0.178-0.029-0.258-0.046-0.495-0.121-0.997-0.282-1.479-0.416-112.812-28.97-211.239-94.766-281.472-188.643-0.592-0.702-1.202-1.389-1.761-2.153-2.335-3.146-4.653-6.364-6.923-9.582-3.711-5.274-7.37-10.68-10.87-16.086-0.438-0.652-0.773-1.314-1.156-1.972-57.958-89.811-85.913-193.642-81.119-299.348 0.011-0.348-0.009-0.698 0-1.054 0.464-10.326 1.283-20.795 2.395-31.101 0.059-0.665 0.207-1.294 0.319-1.959 1.149-10.363 2.591-20.751 4.398-31.136 18.367-105.962 68.352-201.311 143.252-275.503 0.174-0.174 0.354-0.363 0.53-0.544 0.062-0.068 0.13-0.103 0.189-0.167 20.123-19.848 42.012-38.206 65.58-54.806 61.678-43.461 130.357-72.188 204.115-85.424 22.38-4.022 43.758 10.876 47.773 33.245 4.013 22.384-10.872 43.78-33.245 47.788zM486.739 776.864c-18.409 0-33.32-14.924-33.32-33.306v-331.825l303.48-156.882c4.884-2.529 10.115-3.72 15.261-3.72 12.054 0 23.696 6.564 29.615 18.017 8.442 16.346 2.054 36.428-14.292 44.869l-267.462 138.275v291.265c-0.002 18.382-14.896 33.306-33.282 33.306z" />
<glyph unicode="&#xe917;" glyph-name="badge" d="M512 960c-222.596 0-403.692-181.094-403.692-403.692 0-138.726 70.344-261.324 177.23-334.022v-256.746c0-10.024 5.082-19.364 13.5-24.804 8.414-5.442 19.018-6.242 28.16-2.132l184.802 83.158 184.802-83.16c3.87-1.74 8-2.602 12.118-2.602 5.608 0 11.188 1.596 16.042 4.734 8.416 5.442 13.5 14.782 13.5 24.804v256.746c106.886 72.698 177.23 195.296 177.23 334.022 0 222.6-181.096 403.694-403.692 403.694zM679.384 11.22l-155.264 69.868c-3.854 1.736-7.988 2.604-12.12 2.604s-8.266-0.866-12.12-2.602l-155.264-69.868v177.67c14.846-6.768 30.084-12.584 45.61-17.49 0.88-0.28 1.758-0.566 2.642-0.838 1.982-0.61 3.97-1.198 5.96-1.776 1.474-0.432 2.948-0.86 4.426-1.276 1.606-0.448 3.218-0.882 4.83-1.31 1.88-0.502 3.764-0.992 5.654-1.468 1.336-0.334 2.674-0.662 4.014-0.98 2.174-0.522 4.354-1.026 6.542-1.512 1.134-0.252 2.27-0.502 3.406-0.744 2.396-0.512 4.8-0.996 7.214-1.466 0.982-0.19 1.964-0.384 2.948-0.568 2.556-0.476 5.122-0.922 7.694-1.35 0.882-0.148 1.764-0.3 2.648-0.44 2.654-0.424 5.32-0.814 7.994-1.184 0.828-0.114 1.654-0.238 2.482-0.348 2.706-0.358 5.424-0.68 8.144-0.984 0.812-0.090 1.62-0.192 2.432-0.28 2.714-0.288 5.438-0.534 8.168-0.766 0.828-0.070 1.652-0.156 2.482-0.22 2.69-0.212 5.392-0.382 8.098-0.542 0.868-0.052 1.732-0.12 2.604-0.166 2.734-0.144 5.478-0.242 8.226-0.33 0.828-0.028 1.65-0.072 2.478-0.094 3.552-0.092 7.116-0.144 10.692-0.144 3.574 0 7.138 0.052 10.69 0.144 0.828 0.022 1.65 0.066 2.478 0.094 2.748 0.088 5.492 0.188 8.226 0.33 0.868 0.046 1.734 0.114 2.604 0.166 2.706 0.16 5.408 0.328 8.098 0.542 0.83 0.064 1.654 0.15 2.482 0.22 2.73 0.232 5.454 0.48 8.168 0.766 0.812 0.086 1.62 0.188 2.432 0.28 2.722 0.306 5.438 0.626 8.144 0.984 0.83 0.11 1.654 0.232 2.482 0.348 2.672 0.37 5.338 0.76 7.994 1.184 0.884 0.142 1.764 0.294 2.648 0.44 2.572 0.428 5.138 0.874 7.694 1.35 0.984 0.184 1.966 0.376 2.948 0.568 2.412 0.468 4.816 0.956 7.214 1.466 1.138 0.242 2.272 0.492 3.406 0.744 2.188 0.486 4.368 0.99 6.542 1.512 1.338 0.32 2.676 0.648 4.014 0.98 1.89 0.474 3.772 0.964 5.654 1.468 1.612 0.43 3.224 0.86 4.83 1.31 1.478 0.416 2.954 0.844 4.426 1.276 1.99 0.58 3.98 1.166 5.96 1.776 0.884 0.274 1.762 0.56 2.642 0.838 15.526 4.906 30.764 10.72 45.61 17.488v-177.67zM624.458 230.552c-1.178-0.406-2.356-0.814-3.538-1.208-1.796-0.6-3.6-1.19-5.41-1.76-2.106-0.662-4.218-1.3-6.336-1.92-1.494-0.44-2.99-0.878-4.492-1.298-2.802-0.782-5.614-1.53-8.436-2.24-1.052-0.266-2.108-0.518-3.162-0.774-2.762-0.668-5.536-1.304-8.316-1.904-0.7-0.152-1.394-0.312-2.094-0.456-3.588-0.75-7.188-1.448-10.802-2.082-0.368-0.064-0.738-0.12-1.108-0.186-3.256-0.562-6.522-1.072-9.794-1.538-0.738-0.106-1.476-0.21-2.218-0.312-3.49-0.474-6.986-0.91-10.494-1.278-0.132-0.014-0.264-0.032-0.396-0.046-3.672-0.382-7.358-0.696-11.048-0.958-0.8-0.058-1.604-0.1-2.406-0.154-2.87-0.186-5.74-0.332-8.618-0.448-0.978-0.040-1.956-0.080-2.934-0.112-3.614-0.11-7.232-0.186-10.856-0.186s-7.242 0.074-10.856 0.19c-0.98 0.030-1.958 0.072-2.934 0.112-2.878 0.114-5.748 0.262-8.618 0.448-0.802 0.052-1.604 0.096-2.406 0.154-3.69 0.264-7.374 0.578-11.048 0.958-0.132 0.014-0.264 0.032-0.396 0.046-3.508 0.368-7.004 0.804-10.494 1.278-0.738 0.1-1.476 0.204-2.216 0.312-3.274 0.468-6.54 0.976-9.796 1.538-0.368 0.062-0.738 0.12-1.108 0.186-3.614 0.634-7.216 1.334-10.802 2.082-0.698 0.146-1.394 0.308-2.094 0.456-2.78 0.598-5.554 1.236-8.316 1.904-1.056 0.256-2.112 0.508-3.162 0.774-2.822 0.708-5.634 1.46-8.436 2.24-1.502 0.42-2.998 0.858-4.492 1.298-2.116 0.622-4.23 1.258-6.338 1.92-1.81 0.572-3.612 1.16-5.41 1.76-1.184 0.394-2.362 0.802-3.538 1.208-134.968 46.722-232.156 175.094-232.156 325.752 0 190.020 154.594 344.616 344.616 344.616s344.616-154.594 344.616-344.616c0-150.658-97.19-279.030-232.158-325.756zM687.244 556.308l55.482 104.28c4.788 8.994 4.598 19.82-0.496 28.642s-14.376 14.4-24.558 14.752l-118.050 4.090-62.568 100.188c-5.398 8.64-14.866 13.892-25.054 13.892s-19.656-5.252-25.054-13.892l-62.566-100.188-118.050-4.090c-10.182-0.352-19.464-5.93-24.558-14.752s-5.284-19.648-0.496-28.642l55.482-104.28-55.482-104.28c-4.788-8.994-4.598-19.82 0.496-28.642s14.376-14.4 24.558-14.752l118.050-4.090 62.566-100.188c5.396-8.64 14.866-13.892 25.054-13.892s19.656 5.252 25.054 13.892l62.566 100.188 118.050 4.090c10.182 0.352 19.464 5.93 24.558 14.752s5.284 19.648 0.496 28.642l-55.48 104.28zM581.87 463.042c-9.818-0.34-18.828-5.542-24.030-13.876l-45.84-73.402-45.838 73.4c-5.204 8.334-14.212 13.534-24.030 13.876l-86.484 2.998 40.646 76.396c4.616 8.674 4.616 19.074 0 27.748l-40.646 76.396 86.484 2.998c9.818 0.34 18.828 5.542 24.030 13.876l45.838 73.398 45.838-73.4c5.204-8.334 14.212-13.534 24.030-13.876l86.484-2.998-40.646-76.396c-4.614-8.674-4.614-19.076 0.002-27.748l40.646-76.396-86.484-2.994z" />
<glyph unicode="&#xe918;" glyph-name="chevron-down" horiz-adv-x="1463" d="M42.846 917.154c57.128 57.128 149.751 57.128 206.88 0l481.703-481.704 481.703 481.702c57.129 57.128 149.751 57.128 206.88 0 57.123-57.128 57.123-149.75 0-206.879l-688.583-688.58-688.583 688.581c-57.128 57.129-57.128 149.752 0 206.88z" />
<glyph unicode="&#xe91a;" glyph-name="doctor" d="M543.992 831.469h-2.133v2.133c0 16.57-13.43 30-30 30s-30-13.43-30-30v-2.133h-2.133c-16.563 0-30-13.43-30-30s13.438-30 30-30h2.133v-2.133c0-16.57 13.43-30 30-30s30 13.43 30 30v2.133h2.133c16.57 0 30 13.43 30 30s-13.43 30-30 30zM990.57-25.75l-39.523 138.297c-18.172 63.625-63.273 115.523-123.727 142.391l-189.063 84.031v54.203c58.195 40.234 96.406 107.422 96.406 183.367v353.461c0 16.57-13.438 30-30 30h-385.609c-16.563 0-30-13.43-30-30v-353.461c0-75.945 38.211-143.133 96.406-183.367v-54.203l-189.055-84.031c-60.461-26.867-105.563-78.766-123.734-142.383l-39.523-138.305c-5.281-18.469 8.242-38.25 28.859-38.25 13.055 0 25.063 8.586 28.828 21.766l39.531 138.305c13.273 46.484 46.227 84.406 90.406 104.039l76.828 34.156c0.086-0.086 0.156-0.188 0.242-0.273l192.805-192.797c5.859-5.859 13.531-8.789 21.211-8.789s15.352 2.93 21.211 8.789l192.797 192.797c0.086 0.086 0.164 0.18 0.242 0.273l76.836-34.156c44.18-19.633 77.133-57.547 90.406-104.039l39.523-138.305c3.773-13.172 15.781-21.766 28.836-21.766 21.555 0 33.898 20.633 28.859 38.25zM349.055 900h325.609v-197.063h-325.609zM349.055 576.539v66.398h325.609v-66.398c0-89.766-73.039-162.797-162.805-162.797s-162.805 73.031-162.805 162.797zM511.859 104.836l-155.531 155.523 71.32 31.703c10.828 4.813 17.813 15.555 17.813 27.414v44.367c20.977-6.563 43.281-10.102 66.398-10.102s45.422 3.539 66.398 10.102v-44.367c0-11.859 6.984-22.602 17.82-27.414l71.313-31.703zM801.055 60.273h-96.391c-16.57 0-30-13.43-30-30s13.43-30 30-30h96.391c16.57 0 30 13.43 30 30s-13.43 30-30 30z" />
<glyph unicode="&#xe91b;" glyph-name="letter" horiz-adv-x="1000" d="M998.918-37.818c0 0 0 472.962 0 630.476 0 6.494-8.17 14.662-16.13 20.738l-164.844 119.602v132.169c0 12.987-10.892 21.784-21.784 21.784h-187.886l-95.724 69.75c-6.494 4.399-17.386 4.399-24.088 0l-95.724-69.75h-187.886c-12.986 0-21.784-10.892-21.784-21.784v-130.703l-166.94-121.278c-9.845-6.074-16.128-14.034-16.128-20.736 0-158.562 0-634.666 0-634.666 0-12.358 9.845-20.946 20.108-21.784 0.628 0 1.047 0 1.676 0h955.14c14.034 0.21 21.994 11.102 21.994 26.182v0zM957.444 553.49v-552.138l-360.482 288.636 360.482 263.502zM941.316 591.82l-123.372-89.858v180.556l123.372-90.698zM499.564 915.437l38.33-28.277h-76.872l38.542 28.277zM774.376 843.383v-373.259l-274.812-200.244-274.812 200.244v373.259h549.624zM41.683 553.49l360.481-263.502-360.481-290.312v553.814zM183.278 500.286l-126.514 92.164 126.514 91.952v-184.116zM80.852-22.318l356.292 286.752 49.224-36.028c9.424-7.12 16.546-7.12 26.182 0l49.224 36.028 358.386-286.752h-839.308zM647.862 736.558h-294.292v-41.474h294.292v41.474zM647.862 603.55h-294.292v-41.472h294.292v41.472zM647.862 470.542h-294.292v-41.472h294.292v41.472z" />
<glyph unicode="&#xe971;" glyph-name="check" d="M950.864 633.153l-491.878-491.847c-36.424-36.426-95.51-36.426-131.969 0l-253.911 253.932c-36.438 36.431-36.438 95.524 0 131.962 36.445 36.445 95.526 36.445 131.955 0.014l187.96-187.962 425.866 425.869c36.449 36.445 95.534 36.417 131.965 0 36.426-36.438 36.426-95.51 0.011-131.968z" />
</font>
</defs>
</svg>
